Мираж - Дискография [6CD] (1987-2003) WAV

Мираж - Дискография [6CD] (1987-2003) WAV

  • обновлен: 18-12-2021
  • Автор: Andersoni
  • категория: музыка
  • просмотры: 121
  • размер: 13.90 GB


Название: Дискография (6 CD)
Исполнитель: Мираж
Год: 1987-2003
Жанр: Поп

Продолжительность: 04:39:32
Формат/Кодек: WAV (image+.cue)
Битрейт аудио: lossless

Официальный сайт

[spoiler=1987 - Звёзды нас ждут]


Лейбл: JAM Group International
Каталог#: 010 001-2
Год выпуска диска: 1999
Производитель диска: Россия
Продолжительность: 00:40:28
Треклист:

01. Солнечное лето
02. Звёзды нас ждут
03. Безумный мир
04. Я не хочу
05. Около полуночи
06. Видео
07. Эта ночь
08. Электричество
09. Волшебный мир

[spoiler=Отчёт EAC:][/spoiler][spoiler=Cue Sheet (.cue):]
REM GENRE Pop
REM DATE 1987
REM DISCID 77097C09
REM COMMENT "ExactAudioCopy v1.6"
PERFORMER Мираж
TITLE "Звёзды Нас Ждут"
FILE "Мираж - Звёзды Нас Ждут.wav" WAVE
TRACK 01 AUDIO
TITLE "Солнечное лето"
PERFORMER Мираж
INDEX 01 00:00:00
TRACK 02 AUDIO
TITLE "Звёзды нас ждут"
PERFORMER Мираж
INDEX 01 04:30:19
TRACK 03 AUDIO
TITLE "Безумный мир"
PERFORMER Мираж
INDEX 01 09:31:29
TRACK 04 AUDIO
TITLE "Я не хочу"
PERFORMER Мираж
INDEX 01 13:20:44
TRACK 05 AUDIO
TITLE "Около полуночи"
PERFORMER Мираж
INDEX 01 16:19:62
TRACK 06 AUDIO
TITLE Видео
PERFORMER Мираж
INDEX 01 21:33:07
TRACK 07 AUDIO
TITLE "Эта ночь"
PERFORMER Мираж
INDEX 01 25:36:69
TRACK 08 AUDIO
TITLE Электричество
PERFORMER Мираж
INDEX 01 30:03:37
TRACK 09 AUDIO
TITLE "Волшебный мир"
PERFORMER Мираж
INDEX 01 34:16:54
[/spoiler][spoiler=Спектрограмма:]
Мираж - Дискография [6CD] (1987-2003) WAV
[/spoiler]
[spoiler=1989 - Снова вместе]


Лейбл: J.S.P.
Каталог#: 94 002-1
Год выпуска диска: 1994
Производитель диска: Россия
Продолжительность: 00:45:16
Треклист:

01. Музыка нас связала
02. Наступает ночь
03. Снова вместе
04. Где я
05. Я не шучу
06. Млечный путь
07. Море грёз
08. Снежинка
09. Я снова вижу тебя
10. Новый герой
11. Я больше не прошу

[spoiler=Отчёт EAC:][/spoiler][spoiler=Cue Sheet (.cue):]
REM GENRE Pop
REM DATE 1989
REM DISCID 800A9C0B
REM COMMENT "ExactAudioCopy v1.6"
PERFORMER Мираж
TITLE "Снова вместе"
FILE "Мираж - Снова вместе.wav" WAVE
TRACK 01 AUDIO
TITLE "Музыка нас связала"
PERFORMER Мираж
INDEX 01 00:00:00
TRACK 02 AUDIO
TITLE "Наступает ночь"
PERFORMER Мираж
INDEX 01 04:28:46
TRACK 03 AUDIO
TITLE "Снова вместе"
PERFORMER Мираж
INDEX 01 08:51:44
TRACK 04 AUDIO
TITLE "Где я"
PERFORMER Мираж
INDEX 01 14:28:54
TRACK 05 AUDIO
TITLE "Я не шучу"
PERFORMER Мираж
INDEX 01 19:03:38
TRACK 06 AUDIO
TITLE "Млечный путь"
PERFORMER Мираж
INDEX 01 22:14:44
TRACK 07 AUDIO
TITLE "Море грёз"
PERFORMER Мираж
INDEX 01 26:39:30
TRACK 08 AUDIO
TITLE Снежинка
PERFORMER Мираж
INDEX 01 30:46:14
TRACK 09 AUDIO
TITLE "Я снова вижу тебя"
PERFORMER Мираж
INDEX 01 33:43:34
TRACK 10 AUDIO
TITLE "Новый герой"
PERFORMER Мираж
INDEX 01 37:32:03
TRACK 11 AUDIO
TITLE "Я больше не прошу"
PERFORMER Мираж
INDEX 01 41:20:00
[/spoiler][spoiler=Спектрограмма:]

[/spoiler]
[spoiler=1996 - Greatest Hits]

Лейбл: Союз
Каталог#: SZCD 1161-99
Год выпуска диска: 1996
Производитель диска: Россия
Продолжительность: 01:08:29
Треклист:

01. Я Жду Тебя
02. Звёзды Нас Ждут
03. Солнечное Лето
04. Безумный Мир
05. Я Не Хочу
06. Эта Ночь
07. Видео
08. Снова Вместе
09. Я Больше Не Прошу
10. Я Снова Вижу Тебя
11. Новый Герой
12. Где Я
13. Наступает Ночь
14. Млечный Путь
15. Я Не Шучу
16. Музыка Нас Связала

[spoiler=Отчёт EAC:][/spoiler][spoiler=Cue Sheet (.cue):]
REM GENRE Pop
REM DATE 1996
REM DISCID F8103610
REM COMMENT "ExactAudioCopy v1.6"
PERFORMER "Мираж"
TITLE "Greatest Hits"
REM COMPOSER ""
FILE "Мираж - Greatest Hits.wav" WAVE
TRACK 01 AUDIO
TITLE "Я Жду Тебя"
PERFORMER "Мираж"
REM COMPOSER ""
INDEX 00 00:00:00
INDEX 01 00:00:10
TRACK 02 AUDIO
TITLE "Звёзды Нас Ждут"
PERFORMER "Мираж"
REM COMPOSER ""
INDEX 00 04:48:50
INDEX 01 04:51:30
TRACK 03 AUDIO
TITLE "Солнечное Лето"
PERFORMER "Мираж"
REM COMPOSER ""
INDEX 00 10:31:23
INDEX 01 10:34:03
TRACK 04 AUDIO
TITLE "Безумный Мир"
PERFORMER "Мираж"
REM COMPOSER ""
INDEX 00 15:11:65
INDEX 01 15:14:45
TRACK 05 AUDIO
TITLE "Я Не Хочу"
PERFORMER "Мираж"
REM COMPOSER ""
INDEX 00 18:59:60
INDEX 01 19:02:40
TRACK 06 AUDIO
TITLE "Эта Ночь"
PERFORMER "Мираж"
REM COMPOSER ""
INDEX 00 22:01:45
INDEX 01 22:04:25
TRACK 07 AUDIO
TITLE "Видео"
PERFORMER "Мираж"
REM COMPOSER ""
INDEX 00 26:28:00
INDEX 01 26:30:55
TRACK 08 AUDIO
TITLE "Снова Вместе"
PERFORMER "Мираж"
REM COMPOSER ""
INDEX 00 30:34:28
INDEX 01 30:37:08
TRACK 09 AUDIO
TITLE "Я Больше Не Прошу"
PERFORMER "Мираж"
REM COMPOSER ""
INDEX 00 36:11:55
INDEX 01 36:14:35
TRACK 10 AUDIO
TITLE "Я Снова Вижу Тебя"
PERFORMER "Мираж"
REM COMPOSER ""
INDEX 00 40:11:15
INDEX 01 40:13:70
TRACK 11 AUDIO
TITLE "Новый Герой"
PERFORMER "Мираж"
REM COMPOSER ""
INDEX 00 43:59:73
INDEX 01 44:02:53
TRACK 12 AUDIO
TITLE "Где Я"
PERFORMER "Мираж"
REM COMPOSER ""
INDEX 00 47:48:35
INDEX 01 47:51:15
TRACK 13 AUDIO
TITLE "Наступает Ночь"
PERFORMER "Мираж"
REM COMPOSER ""
INDEX 00 52:24:35
INDEX 01 52:27:15
TRACK 14 AUDIO
TITLE "Млечный Путь"
PERFORMER "Мираж"
REM COMPOSER ""
INDEX 00 57:02:43
INDEX 01 57:05:23
TRACK 15 AUDIO
TITLE "Я Не Шучу"
PERFORMER "Мираж"
REM COMPOSER ""
INDEX 00 61:28:63
INDEX 01 61:31:43
TRACK 16 AUDIO
TITLE "Музыка Нас Связала"
PERFORMER "Мираж"
REM COMPOSER ""
INDEX 00 64:40:10
INDEX 01 64:42:65
[/spoiler][spoiler=Спектрограмма:]

[/spoiler]
[spoiler=1997 - Dance Remix]

Лейбл: J.S.P.
Каталог#: 010 112-2
Год выпуска диска: 1997
Производитель диска: Россия
Продолжительность: 00:46:24
Треклист:

01. Я Больше Не Прошу
02. Электричество
03. Новый Герой
04. Музыка Нас Связала
05. Звезды Нас Ждут
06. Эта Ночь
07. Видео
08. Снежинка
09. Где Я
10. Море Грез
11. Безумный Мир
12. Волшебный Мир
13. Я Снова Вижу Тебя
14. Наступает Ночь
15. Млечный Путь
16. Солнечное Лето
17. Я Жду Тебя

[spoiler=Отчёт EAC:][/spoiler][spoiler=Cue Sheet (.cue):]
REM GENRE Pop
REM DATE 1997
REM DISCID 030AE011
REM COMMENT "ExactAudioCopy v1.6"
PERFORMER "Мираж"
TITLE "Dance Remix"
REM COMPOSER ""
FILE "Мираж - Dance Remix.wav" WAVE
TRACK 01 AUDIO
TITLE "Я Больше Не Прошу"
PERFORMER "Мираж"
REM COMPOSER ""
INDEX 01 00:00:00
TRACK 02 AUDIO
TITLE "Электричество"
PERFORMER "Мираж"
REM COMPOSER ""
INDEX 01 03:46:46
TRACK 03 AUDIO
TITLE "Новый Герой"
PERFORMER "Мираж"
REM COMPOSER ""
INDEX 01 06:02:47
TRACK 04 AUDIO
TITLE "Музыка Нас Связала"
PERFORMER "Мираж"
REM COMPOSER ""
INDEX 01 07:29:02
TRACK 05 AUDIO
TITLE "Звёзды Нас Ждут"
PERFORMER "Мираж"
REM COMPOSER ""
INDEX 01 10:57:51
TRACK 06 AUDIO
TITLE "Эта Ночь"
PERFORMER "Мираж"
REM COMPOSER ""
INDEX 01 13:10:02
TRACK 07 AUDIO
TITLE "Видео"
PERFORMER "Мираж"
REM COMPOSER ""
INDEX 01 14:54:45
TRACK 08 AUDIO
TITLE "Снежинка"
PERFORMER "Мираж"
REM COMPOSER ""
INDEX 01 16:29:31
TRACK 09 AUDIO
TITLE "Где Я"
PERFORMER "Мираж"
REM COMPOSER ""
INDEX 01 19:07:32
TRACK 10 AUDIO
TITLE "Море Грёз"
PERFORMER "Мираж"
REM COMPOSER ""
INDEX 01 22:31:00
TRACK 11 AUDIO
TITLE "Безумный Мир"
PERFORMER "Мираж"
REM COMPOSER ""
INDEX 01 25:55:73
TRACK 12 AUDIO
TITLE "Волшебный Мир"
PERFORMER "Мираж"
REM COMPOSER ""
INDEX 01 29:25:71
TRACK 13 AUDIO
TITLE "Я Снова Вижу Тебя"
PERFORMER "Мираж"
REM COMPOSER ""
INDEX 01 33:36:50
TRACK 14 AUDIO
TITLE "Наступает Ночь"
PERFORMER "Мираж"
REM COMPOSER ""
INDEX 01 36:13:50
TRACK 15 AUDIO
TITLE "Млечный Путь"
PERFORMER "Мираж"
REM COMPOSER ""
INDEX 01 37:41:51
TRACK 16 AUDIO
TITLE "Солнечное Лето"
PERFORMER "Мираж"
REM COMPOSER ""
INDEX 01 39:43:47
TRACK 17 AUDIO
TITLE "Я Жду Тебя"
PERFORMER "Мираж"
REM COMPOSER ""
INDEX 01 42:34:21
[/spoiler][spoiler=Спектрограмма:]

[/spoiler]
[spoiler=2001 - Назад в будущее]

Лейбл: Студия А. Литягина "Мираж"
Каталог#: none
Год выпуска диска: 2001
Производитель диска: Россия
Продолжительность: 00:39:18
Треклист:

01. Эта ночь
02. Млечный путь
03. Солнечное лето
04. Я не шучу
05. Где я
06. Я жду тебя
07. Безумный мир
08. Снова вместе
09. Вижу тебя
10. Попурри

[spoiler=Отчёт EAC:][/spoiler][spoiler=Cue Sheet (.cue):]
REM GENRE Pop
REM DATE 2001
REM DISCID 8E09360A
REM COMMENT "ExactAudioCopy v1.6"
PERFORMER "Мираж"
TITLE "Назад в будущее"
REM COMPOSER ""
FILE "Мираж - Назад в будущее.wav" WAVE
TRACK 01 AUDIO
TITLE "Эта ночь"
PERFORMER "Мираж"
REM COMPOSER ""
INDEX 01 00:00:00
TRACK 02 AUDIO
TITLE "Млечный путь"
PERFORMER "Мираж"
REM COMPOSER ""
INDEX 01 03:21:36
TRACK 03 AUDIO
TITLE "Солнечное лето"
PERFORMER "Мираж"
REM COMPOSER ""
INDEX 01 06:24:29
TRACK 04 AUDIO
TITLE "Я не шучу"
PERFORMER "Мираж"
REM COMPOSER ""
INDEX 01 08:56:40
TRACK 05 AUDIO
TITLE "Где я"
PERFORMER "Мираж"
REM COMPOSER ""
INDEX 01 12:24:22
TRACK 06 AUDIO
TITLE "Я жду тебя"
PERFORMER "Мираж"
REM COMPOSER ""
INDEX 01 16:17:25
TRACK 07 AUDIO
TITLE "Безумный мир"
PERFORMER "Мираж"
REM COMPOSER ""
INDEX 01 19:31:67
TRACK 08 AUDIO
TITLE "Снова вместе"
PERFORMER "Мираж"
REM COMPOSER ""
INDEX 01 23:08:16
TRACK 09 AUDIO
TITLE "Вижу тебя"
PERFORMER "Мираж"
REM COMPOSER ""
INDEX 01 25:54:11
TRACK 10 AUDIO
TITLE "Попурри"
PERFORMER "Мираж"
REM COMPOSER ""
INDEX 01 29:31:27
[/spoiler][spoiler=Спектрограмма:]

[/spoiler]
[spoiler=2003 - Брось!]

Лейбл: Mirage Music
Каталог#: none
Год выпуска диска: 2003
Производитель диска: Россия
Продолжительность: 00:38:54
Треклист:

01. Пальчиком маня
02. Скорость
03. Эхо
04. Не в первый раз
05. Солнечный зайчик
06. Я уйду
07. Брось!
08. В ритме шагов
09. Я больше не прошу (версия 2003)
10. Рождество (instrumental)

[spoiler=Отчёт EAC:][/spoiler][spoiler=Cue Sheet (.cue):]
REM GENRE Pop
REM DATE 2003
REM DISCID 78091E0A
REM COMMENT "ExactAudioCopy v1.6"
PERFORMER "Мираж"
TITLE "Брось!"
REM COMPOSER ""
FILE "Мираж - Брось!.wav" WAVE
TRACK 01 AUDIO
TITLE "Пальчиком маня"
PERFORMER "Мираж"
REM COMPOSER ""
INDEX 01 00:00:00
TRACK 02 AUDIO
TITLE "Скорость"
PERFORMER "Мираж"
REM COMPOSER ""
INDEX 01 02:59:10
TRACK 03 AUDIO
TITLE "Эхо"
PERFORMER "Мираж"
REM COMPOSER ""
INDEX 01 06:23:25
TRACK 04 AUDIO
TITLE "Не в первый раз"
PERFORMER "Мираж"
REM COMPOSER ""
INDEX 01 10:24:67
TRACK 05 AUDIO
TITLE "Солнечный зайчик"
PERFORMER "Мираж"
REM COMPOSER ""
INDEX 01 13:37:25
TRACK 06 AUDIO
TITLE "Я уйду"
PERFORMER "Мираж"
REM COMPOSER ""
INDEX 01 17:45:62
TRACK 07 AUDIO
TITLE "Брось!"
PERFORMER "Мираж"
REM COMPOSER ""
INDEX 01 23:28:30
TRACK 08 AUDIO
TITLE "В ритме шагов"
PERFORMER "Мираж"
REM COMPOSER ""
INDEX 01 27:00:30
TRACK 09 AUDIO
TITLE "Я больше не прошу (Версия 2003)"
PERFORMER "Мираж"
REM COMPOSER ""
INDEX 01 31:19:65
TRACK 10 AUDIO
TITLE "Рождество (Instrumental)"
PERFORMER "Мираж"
REM COMPOSER ""
INDEX 01 34:39:02
[/spoiler][spoiler=Спектрограмма:]

[/spoiler]
[spoiler=Отчёт Mp3tag:]
Мираж (1987-2003) | 2,76 GB | Folder Total 6 |
Folder 001 | 1987 - Звёзды Нас Ждут | Album - | 408,48 MB | 1 Files | 00:40:28 hrs |
001 | 40:28 min | 1411 kbps CBR | 44100 Hz | Stereo | PCM | 408,48 MB | Мираж - Звёзды Нас Ждут |
Folder 002 | 1989 - Снова вместе | Album - | 457,01 MB | 1 Files | 00:45:16 hrs |
001 | 45:16 min | 1411 kbps CBR | 44100 Hz | Stereo | PCM | 457,01 MB | Мираж - Снова вместе |
Folder 003 | 1996 - Greatest Hits | Album - | 698,22 MB | 1 Files | 01:09:10 hrs |
001 | 01:09:10 min | 1411 kbps CBR | 44100 Hz | Stereo | PCM | 698,22 MB | Мираж - Greatest Hits |
Folder 004 | 1997 - Dance Remix | Album - | 468,35 MB | 1 Files | 00:46:24 hrs |
001 | 46:24 min | 1411 kbps CBR | 44100 Hz | Stereo | PCM | 468,35 MB | Мираж - Dance Remix |
Folder 005 | 2001 - Назад в будущее | Album - | 396,76 MB | 1 Files | 00:39:18 hrs |
001 | 39:18 min | 1411 kbps CBR | 44100 Hz | Stereo | PCM | 396,76 MB | Мираж - Назад в будущее |
Folder 006 | 2003 - Брось! | Album - | 392,73 MB | 1 Files | 00:38:54 hrs |
001 | 38:54 min | 1411 kbps CBR | 44100 Hz | Stereo | PCM | 392,73 MB | Мираж - Брось! |
[/spoiler][spoiler=Обложки]




[/spoiler][spoiler=Дополнительная информация:]
Графические файлы лучше открывать приложениями: ACDSee Photo Studio, Adobe Photoshop, Corel PHOTO-PAINT, Snagit Editor, (Windows приложение) Фотографии .
[/spoiler][spoiler=Об исполнителе (группе):]
Легендарная группа "Мираж". Самая загадочная и неподвластная времени группа. «Музыка нас связала», «Наступает ночь», «Солнечное лето», «Видео» - это золотые хиты неподвластные времени и моде, написанные Андреем Литягиным, Валерием Соколовым, Еленой Степановой. Сохранив характерное звучание, образ и эстетику, группа «Мираж» доказала, что на сегодняшний день - в 21-м веке является одним из лидеров европейской танцевальной музыки в России. При постоянной концертной работе группа «МИРАЖ» записывает новые песни со своим бессменным композитором Андреем Литягиным.
[/spoiler]
скачивайте Мираж - Дискография [6CD] (1987-2003) WAV бесплатно прямо с Tfile.me
Комментарии (0)
  • bowtiesmilelaughingblushsmileyrelaxedsmirk
    heart_eyeskissing_heartkissing_closed_eyesflushedrelievedsatisfiedgrin
    winkstuck_out_tongue_winking_eyestuck_out_tongue_closed_eyesgrinningkissingstuck_out_tonguesleeping
    worriedfrowninganguishedopen_mouthgrimacingconfusedhushed
    expressionlessunamusedsweat_smilesweatdisappointed_relievedwearypensive
    disappointedconfoundedfearfulcold_sweatperseverecrysob
    joyastonishedscreamtired_faceangryragetriumph
    sleepyyummasksunglassesdizzy_faceimpsmiling_imp
    neutral_faceno_mouthinnocent